ΦόρουμΦόρουμ    Συχνές ΕρωτήσειςΣυχνές Ερωτήσεις  ΑναζήτησηΑναζήτηση  Κατάλογος ΜελώνΚατάλογος Μελών  Ομάδες ΜελώνΟμάδες Μελών  ΕγγραφήΕγγραφή  ΣύνδεσηΣύνδεση  

Μοιραστείτε | 
 

 Warcraft (2016) 720p WebHD x264 Hindi - dubbed AC3 2.0 torrent

Επισκόπηση προηγούμενης Θ.Ενότητας Επισκόπηση επόμενης Θ.Ενότητας Πήγαινε κάτω 
ΣυγγραφέαςΜήνυμα
alienmamas

avatar

My Pet :
Αριθμός μηνυμάτων : 201
Ηλικία : 35
Τόπος : alienmamas
Chatting Points : 3604
Registration date : 06/02/2009

ΔημοσίευσηΘέμα: Warcraft (2016) 720p WebHD x264 Hindi - dubbed AC3 2.0 torrent   Δευ Αυγ 08, 2016 12:16 am



              


Specs:
Source: Web-HD @ HDC

Format : Matroska
Format version : Version 4 / Version 2
File size : 1.45 GiB
Duration : 1h 58mn
Overall bit rate : 1 761 Kbps
Encoded date : UTC 2016-08-06 22:43:03

Video
FFormat : AVC
Format/Info : Advanced Video Codec
Format profile : High@L4.1
Format settings, CABAC : Yes
Format settings, ReFrames : 12 frames
Codec ID : V_MPEG4/ISO/AVC
Duration : 1h 58mn
Bit rate : 1 521 Kbps
Width : 1 280 pixels
Height : 524 pixels
Display aspect ratio : 2.40:1
Frame rate mode : Constant
Frame rate : 25.000 fps
Color space : YUV
Chroma subsampling : 4:2:0
Bit depth : 8 bits
Scan type : Progressive
Bits/(Pixel*Frame) : 0.091
Stream size : 1.25 GiB (86%)

Audio #1
Format : AC-3
Format/Info : Audio Coding 3
Mode extension : CM (complete main)
Format settings, Endianness : Big
Codec ID : A_AC3
Duration : 1h 49mn
Bit rate mode : Constant
Bit rate : 256 Kbps
Channel(s) : 2 channels
Channel positions : Front: L R
Sampling rate : 44.1 KHz
Frame rate : 28.711 fps (1536 spf)
Compression mode : Lossy
Stream size : 201 MiB (13%)
Language : Hindi
Default : Yes
Forced : No


extratorrent.cc/download/5092926/Warcraft+%282016%29+720p+WebHD+x264+Hindi+-+dubbed+AC3+2.0+-DDR.torrent
Επιστροφή στην κορυφή Πήγαινε κάτω
Επισκόπηση του προφίλ των χρηστών
 
Warcraft (2016) 720p WebHD x264 Hindi - dubbed AC3 2.0 torrent
Επισκόπηση προηγούμενης Θ.Ενότητας Επισκόπηση επόμενης Θ.Ενότητας Επιστροφή στην κορυφή 
Σελίδα 1 από 1
 Παρόμοια θέματα
-
» Χριστουγεννιάτικος Διαγωνισμός 2016

Δικαιώματα σας στην κατηγορία αυτήΔεν μπορείτε να απαντήσετε στα Θέματα αυτής της Δ.Συζήτησης
 :: Βίντεο :: Ταινίες-
Μετάβαση σε: